Захват видео в LS Terminal 1.45 х64

различное программное обеспечение для построения LED анимации
Post Reply
MalikovVV
Posts: 8
Joined: 12 Dec 2018, 05:06

Захват видео в LS Terminal 1.45 х64

Post by MalikovVV » 12 Dec 2018, 05:17

Данис, подскажите как решить проблему - при захвате видео большого размера (>7000 кадров) программа или вылетает или просто "вешается на 99%), т.е остается один кадр из 7842. Пробовал кодировать разные фрагменты разных файлов и на многих происходит зависание программы.
В версии 1.44 х64 аналогичная проблема.
Матрица маленькая - WS2812 39x20, в параметрах resize 45x25 inter_area? само видео 720p avi.

User avatar
Magic Friend
Posts: 278
Joined: 09 Sep 2018, 18:05

Re: Захват видео в LS Terminal 1.45 х64

Post by Magic Friend » 12 Dec 2018, 16:49

MalikovVV wrote:
12 Dec 2018, 05:17
Данис, подскажите как решить проблему - при захвате видео большого размера (>7000 кадров) программа или вылетает или просто "вешается на 99%), т.е остается один кадр из 7842. Пробовал кодировать разные фрагменты разных файлов и на многих происходит зависание программы.
В версии 1.44 х64 аналогичная проблема.
Матрица маленькая - WS2812 39x20, в параметрах resize 45x25 inter_area? само видео 720p avi.
Т.е. видео в 20 раз имеет большее разрешение, чем исходная матрица? Возможно не хватает ОЗУ чтобы более 7К кадров с таким большим разрешением обрабатывать, возможно я ошибаюсь. Это только можно под отладкой увидеть. Я вам рекомендую исходное видео не делать с разрешением больше чем 128 pix при таком большом числе кадров. Возможно все пройдет. Иногда программа валится в самом конце, на последнем кадре, т.к. нет признака завершающего кадра в видео контейнере, тогда рекомендую сменить кодек.
А если прикинуть, 7000 кадров / 30 кадров/сек = 233 сек или 3,8 минуты. Это не много, есть ролики у ребят и по 7-9 минут, все как-то проходит по маслу. Попробуйте сначала уменьшить разрешение исходного видео внешним видео редактором с кодеком без сжатия, думаю все пройдет...

MalikovVV
Posts: 8
Joined: 12 Dec 2018, 05:06

Re: Захват видео в LS Terminal 1.45 х64

Post by MalikovVV » 13 Dec 2018, 08:14

Видео подрезал, кодек заменил на MPEG2 (вот оно - https://ru.files.fm/u/7fymhjdc), результата нет - вылет программы на последних кадрах.

User avatar
Magic Friend
Posts: 278
Joined: 09 Sep 2018, 18:05

Re: Захват видео в LS Terminal 1.45 х64

Post by Magic Friend » 05 Jan 2019, 17:01

MalikovVV wrote:
13 Dec 2018, 08:14
Видео подрезал, кодек заменил на MPEG2 (вот оно - https://ru.files.fm/u/7fymhjdc), результата нет - вылет программы на последних кадрах.
Похоже, все таки, что видео в самом конце битое или это особенность обработки кодека. Контейнер avi показывает, что в нем всего 14346 фреймов, а реально при вычитывании на 14345-м уже идет ошибка чтения кадра.
Ну, подшаманили эту штуку, попробуйте, как у вас пойдет?

Download LS Terminal 1.46x32 beta: http://iqled.org/soft/LS-Terminal-1.46x32-beta.rar
Download LS Terminal 1.46x64 beta: http://iqled.org/soft/LS-Terminal-1.46x64-beta.rar

Image

Image

Image

Причем я заметил, при монтаже ролика из нескольких частей, иногда появляются битые кадры в видео в месте склейки.
Я софтиной vReveal конвертировал такое "битое" видео в несжатый формат и "вылеты" LS Terminal у меня пропали.

User avatar
ret-u
Posts: 25
Joined: 17 Sep 2018, 18:34
Location: Воронеж
Contact:

Re: Захват видео в LS Terminal 1.45 х64

Post by ret-u » 05 Jan 2019, 21:40

Начало было здесь - Начало
Итак попробовал видео файл, предложенный
MalikovVV писал(а): ↑21 дек 2018, 19:26
https://ru.files.fm/u/zjrmh8pb - ссылка на мультик, OS - Win7 x64
конвертировать в LS Terminal 1.46, все прошло успешно.
2019-01-06_00-06-14.png
конвертация видео с помощью LS Terminal 1.46
2019-01-06_00-06-14.png (131.65 KiB) Viewed 4366 times
- конвертация видео с помощью LS Terminal 1.46
----------
Свойства видео:
General
Complete name : E:\Downloads\Nu_Pogodi_06.avi
Format : AVI
Format/Info : Audio Video Interleave
File size : 51.4 MiB
Duration : 9 min 33 s
Overall bit rate : 751 kb/s

Video
ID : 0
Format : MPEG-4 Visual
Format profile : Advanced Simple@L5
Format settings, BVOP : 2
Format settings, QPel : No
Format settings, GMC : No warppoints
Format settings, Matrix : Default (H.263)
Muxing mode : Packed bitstream
Codec ID : XVID
Codec ID/Hint : XviD
Duration : 9 min 33 s
Bit rate : 552 kb/s
Width : 352 pixels
Height : 288 pixels
Display aspect ratio : 1.222
Frame rate : 25.000 FPS
Standard : PAL
Color space : YUV
Chroma subsampling : 4:2:0
Bit depth : 8 bits
Scan type : Progressive
Compression mode : Lossy
Bits/(Pixel*Frame) : 0.218
Stream size : 37.8 MiB (74%)
Writing library : XviD 1.1.0 (UTC 2005-11-22)

Audio
ID : 1
Format : MPEG Audio
Format version : Version 1
Format profile : Layer 3
Codec ID : 55
Codec ID/Hint : MP3
Duration : 9 min 33 s
Bit rate mode : Constant
Bit rate : 192 kb/s
Channel(s) : 2 channels
Sampling rate : 44.1 kHz
Compression mode : Lossy
Stream size : 13.1 MiB (26%)
Alignment : Split accross interleaves
Interleave, duration : 500 ms (12.51 video frames)

===================================
Заодно попробовал конвертировать находящийся у меня аналогичный - "Ну погоди, 6 я серия" в LS Terminal 1.46 и LS Terminal 1.45 сконвертировал без проблем.

************************************************

ЗДЕСЬ ДОЛЖНЫ БЫТЬ ФОТО, но браузер их не хочет заливать!!!! Попробую завтра вставить картинки!!! :evil: :evil: :evil:

*************************************************

__________________________________________
Свойства видеофайла моего - "Ну погоди, 6-я серия" :
General
Complete name : Z:\Video\1 Detki Video\Multiki\4 - Полнометражные\Ну погоди\06 - Ну, Погоди! ч.06.avi
Format : AVI
Format/Info : Audio Video Interleave
File size : 133 MiB
Duration : 9 min 37 s
Overall bit rate : 1 938 kb/s
Movie name : Ну, Погоди! (6-я серия)
Director : agor
Writing application : VirtualDubMod 1.5.10.1 (build 2366/release)
Writing library : VirtualDubMod build 2366/release

Video
ID : 0
Format : MPEG-4 Visual
Format profile : Advanced Simple@L5
Format settings, BVOP : 1
Format settings, QPel : No
Format settings, GMC : No warppoints
Format settings, Matrix : Default (MPEG)
Codec ID : XVID
Codec ID/Hint : XviD
Duration : 9 min 37 s
Bit rate : 1 800 kb/s
Width : 640 pixels
Height : 480 pixels
Display aspect ratio : 4:3
Frame rate : 25.000 FPS
Color space : YUV
Chroma subsampling : 4:2:0
Bit depth : 8 bits
Scan type : Progressive
Compression mode : Lossy
Bits/(Pixel*Frame) : 0.234
Stream size : 124 MiB (93%)
Writing library : XviD 1.0.3 (UTC 2004-12-20)

Audio
ID : 1
Format : MPEG Audio
Format version : Version 1
Format profile : Layer 3
Codec ID : 55
Codec ID/Hint : MP3
Duration : 9 min 37 s
Bit rate mode : Constant
Bit rate : 128 kb/s
Channel(s) : 2 channels
Sampling rate : 48.0 kHz
Compression mode : Lossy
Stream size : 8.81 MiB (7%)
Alignment : Aligned on interleaves
Interleave, duration : 40 ms (1.00 video frame)
Interleave, preload duration : 504 ms
Attachments
2019-01-05_23-46-15.png
2019-01-05_23-46-15.png (212.61 KiB) Viewed 4365 times
2019-01-06_00-06-14.png
конвертация с помощью LS Terminal 1.46
2019-01-06_00-06-14.png (131.65 KiB) Viewed 4366 times

MalikovVV
Posts: 8
Joined: 12 Dec 2018, 05:06

Re: Захват видео в LS Terminal 1.45 х64

Post by MalikovVV » 16 Jan 2019, 18:20

Спасибо за новую версию LS Terminal, теперь все работает!

User avatar
Magic Friend
Posts: 278
Joined: 09 Sep 2018, 18:05

Re: Захват видео в LS Terminal 1.45 х64

Post by Magic Friend » 07 Feb 2019, 18:04

MalikovVV wrote:
16 Jan 2019, 18:20
Спасибо за новую версию LS Terminal, теперь все работает!
Image
по этой ссылке вы можете скачивать последние обновления:
viewtopic.php?f=26&t=87

Shklodas
Posts: 3
Joined: 21 Jan 2019, 08:39

Re: Захват видео в LS Terminal 1.45 х64

Post by Shklodas » 19 Mar 2019, 18:14

привет всем. подскажите почему когда импортирую видео.. были ваши примеры, то видео на екране в предпросмотре в лево смешенно?Image
Attachments
test.png
test sleva kartinka
test.png (57.5 KiB) Viewed 4012 times

User avatar
Magic Friend
Posts: 278
Joined: 09 Sep 2018, 18:05

Re: Захват видео в LS Terminal 1.45 х64

Post by Magic Friend » 21 Mar 2019, 18:08

Shklodas wrote:
19 Mar 2019, 18:14
привет всем. подскажите почему когда импортирую видео.. были ваши примеры, то видео на екране в предпросмотре в лево смешенно?Image
Shklodas, видео всегда выравнивается в левый верхний угол.
Смещать нужно вашу трассу(карту) пиксельную а не видео.

Post Reply